Give the life to this torrent: Кредо убийцы / Assassin's Creed (2016) BDRip 1080p | Лицензия! After your Download, don't forget to Seed!

"Кредо убийцы / Assassin's Creed (2016) BDRip 1080p | Лицензия"

Hash: f816eb9bd98c0daec9be049e15904af2395371a5

Size: 9.9 GB
Age: 14/03/2017
Files: 1
Seeds: 1859
Leeches: 68
Verified: no
Downloads: 5

Hide your ip, before downloads! To anonymously download this torrent Кредо убийцы / Assassin's Creed (2016) BDRip 1080p | Лицензия, you need a SpyOFF VPN tool:

Get anonymous VPN
We searched for this here: Rutor
Torrent description Torrent found on:
Кредо убийцы / Assassin's Creed Страна: Великобритания Франция Гонконг США Производство: New Regency Pictures, RatPac Entertainment, Ubisoft, The Kennedy/Marshall Company, DMC Film, Latina Pictures Год выпуска: 2016 Жанр: фантастика, фэнтези, боевик, приключения Продолжительность: 01:55:31 Режиссер: Джастин Курзель Авторы сценария: Майкл Лессли, Адам Купер, Билл Колладж В ролях: Марион Котийяр, Майкл Фассбендер, Эсси Дэвис, Джереми Айронс, Брендан Глисон, Майкл Кеннет Уильямс, Шарлотта Рэмплинг, Ариана Лабед Описание: Благодаря революционной технологии, которая высвобождает генетическую память, Каллум Линч переживает приключения своего предка Агилара в Испании XV столетия. Заполучив невероятные знания и способности, Каллум сразится с рыцарями ордена тамплиеров в наше время... Перевод: Профессиональный (полное дублирование) | Лицензия Субтитры: русские (forced + full), украинские (forced), английские (forced + full + SDH) Качество: BDRip 1080p Формат: МКV Видео кодек: AVC Аудио кодек: АС3 | DTS Видео: 1920x804 (2.40:1), 23.976 fps, MPEG-4 AVC ~9 811 kbps avg Аудио №1: 48.0 kHz, AC3 Dolby Digital, 3/2 (L,C,R,l,r) + LFE ch, ~448 kbps | RUS Аудио №2: 48.0 kHz, AC3 Dolby Digital, 2/0 (L,R) ch, ~192 kbps | UKR / украинский Аудио №3: 48.0 kHz, Digital Theater Systems, 3/2 (L,C,R,l,r) + LFE ch, ~1509 kbps | ENG Формат субтитров: UTF-8 Plain Text Дата премьеры (мир): 14 декабря 2016 Дата премьеры (РФ): 5 января 2017, «Двадцатый Век Фокс СНГ» Media Info General
Unique ID : 220086875951776085382596495821037310020 (0xA59330C30CA05BAA8B9289E745471044)
Complete name : Assassin's.Creed.2016.BluRay.1080p.x264.Rus.Eng.Ukr.Subs-CHD.mkv
Format : Matroska
Format version : Version 4 / Version 2
File size : 9.91 GiB
Duration : 1 h 56 min
Overall bit rate : 12.2 Mb/s
Encoded date : UTC 2017-03-14 05:57:59
Writing application : mkvmerge v6.9.1 ('Blue Panther') 32bit built on Apr 18 2014 18:15:44
Writing library : libebml v1.3.0 + libmatroska v1.4.1
Video
ID : 1
Format : AVC
Format/Info : Advanced Video Codec
Format profile : High@L4.1
Format settings, CABAC : Yes
Format settings, ReFrames : 4 frames
Codec ID : V_MPEG4/ISO/AVC
Duration : 1 h 56 min
Bit rate : 9 811 kb/s
Width : 1 920 pixels
Height : 804 pixels
Display aspect ratio : 2.40:1
Frame rate mode : Constant
Frame rate : 23.976 (24000/1001) FPS
Color space : YUV
Chroma subsampling : 4:2:0
Bit depth : 8 bits
Scan type : Progressive
Bits/(Pixel*Frame) : 0.265
Stream size : 7.97 GiB (80%)
Writing library : x264 core 149 r2771+45 509cceb 7mod
Encoding settings : cabac=1 / ref=4 / deblock=1:-3:-3 / analyse=0x3:0x113 / me=umh / subme=11 / psy=1 / fade_compensate=0.00 / psy_rd=1.00:0.05 / mixed_ref=1 / me_range=48 / chroma_me=1 / trellis=2 / 8x8dct=1 / cqm=0 / deadzone=21,11 / fast_pskip=0 / chroma_qp_offset=-2 / threads=12 / lookahead_threads=2 / sliced_threads=0 / nr=0 / decimate=1 / interlaced=0 / bluray_compat=0 / constrained_intra=0 / fgo=0 / bframes=8 / b_pyramid=2 / b_adapt=2 / b_bias=0 / direct=3 / weightb=1 / open_gop=0 / weightp=2 / keyint=250 / keyint_min=23 / scenecut=40 / intra_refresh=0 / rc_lookahead=40 / rc=crf / mbtree=0 / crf=17.5000 / qcomp=0.60 / qpmin=0:0:0 / qpmax=69:69:69 / qpstep=4 / vbv_maxrate=50000 / vbv_bufsize=45000 / crf_max=0.0 / nal_hrd=none / filler=0 / ip_ratio=1.40 / pb_ratio=1.30 / aq=3:1.00 / aq-sensitivity=10.00 / aq-factor=1.00:1.00:1.00 / aq2=0 / aq3=0
Language : English
Default : Yes
Forced : No
Color range : Limited
Matrix coefficients : BT.709
Audio #1
ID : 2
Format : AC-3
Format/Info : Audio Coding 3
Mode extension : CM (complete main)
Format settings, Endianness : Big
Codec ID : A_AC3
Duration : 1 h 56 min
Bit rate mode : Constant
Bit rate : 448 kb/s
Channel(s) : 6 channels
Channel positions : Front: L C R, Side: L R, LFE
Sampling rate : 48.0 kHz
Frame rate : 31.250 FPS (1536 spf)
Bit depth : 16 bits
Compression mode : Lossy
Stream size : 373 MiB (4%)
Title : Dub (Лицензия)
Language : Russian
Default : Yes
Forced : No
Audio #2
ID : 3
Format : AC-3
Format/Info : Audio Coding 3
Mode extension : CM (complete main)
Format settings, Endianness : Big
Codec ID : A_AC3
Duration : 1 h 56 min
Bit rate mode : Constant
Bit rate : 192 kb/s
Channel(s) : 2 channels
Channel positions : Front: L R
Sampling rate : 48.0 kHz
Frame rate : 31.250 FPS (1536 spf)
Bit depth : 16 bits
Compression mode : Lossy
Stream size : 160 MiB (2%)
Language : Ukrainian
Default : No
Forced : No
Audio #3
ID : 4
Format : DTS
Format/Info : Digital Theater Systems
Mode : 16
Format settings, Endianness : Big
Codec ID : A_DTS
Duration : 1 h 56 min
Bit rate mode : Constant
Bit rate : 1 509 kb/s
Channel(s) : 6 channels
Channel positions : Front: L C R, Side: L R, LFE
Sampling rate : 48.0 kHz
Frame rate : 93.750 FPS (512 spf)
Bit depth : 24 bits
Compression mode : Lossy
Stream size : 1.23 GiB (12%)
Language : English
Default : No
Forced : No
Text #1
ID : 5
Format : UTF-8
Codec ID : S_TEXT/UTF8
Codec ID/Info : UTF-8 Plain Text
Title : Forced
Language : Russian
Default : Yes
Forced : No
Text #2
ID : 6
Format : UTF-8
Codec ID : S_TEXT/UTF8
Codec ID/Info : UTF-8 Plain Text
Title : Full
Language : Russian
Default : No
Forced : No
Text #3
ID : 7
Format : UTF-8
Codec ID : S_TEXT/UTF8
Codec ID/Info : UTF-8 Plain Text
Title : Forced
Language : Ukrainian
Default : No
Forced : No
Text #4
ID : 8
Format : UTF-8
Codec ID : S_TEXT/UTF8
Codec ID/Info : UTF-8 Plain Text
Title : Forced
Language : English
Default : No
Forced : No
Text #5
ID : 9
Format : UTF-8
Codec ID : S_TEXT/UTF8
Codec ID/Info : UTF-8 Plain Text
Language : English
Default : No
Forced : No
Text #6
ID : 10
Format : UTF-8
Codec ID : S_TEXT/UTF8
Codec ID/Info : UTF-8 Plain Text
Title : SDH
Language : English
Default : No
Forced : No
Menu
00:00:00.000 : en:00:00:00.000
00:06:04.155 : en:00:06:04.155
00:09:32.697 : en:00:09:32.697
00:12:47.517 : en:00:12:47.517
00:16:47.715 : en:00:16:47.715
00:21:07.433 : en:00:21:07.433
00:26:56.448 : en:00:26:56.448
00:31:55.080 : en:00:31:55.080
00:38:06.284 : en:00:38:06.284
00:41:43.167 : en:00:41:43.167
00:46:33.040 : en:00:46:33.040
00:50:10.257 : en:00:50:10.257
00:53:04.390 : en:00:53:04.390
00:56:17.624 : en:00:56:17.624
00:59:26.480 : en:00:59:26.480
01:02:32.582 : en:01:02:32.582
01:06:37.035 : en:01:06:37.035
01:13:08.759 : en:01:13:08.759
01:18:45.888 : en:01:18:45.888
01:23:01.101 : en:01:23:01.101
01:30:17.996 : en:01:30:17.996
01:34:18.194 : en:01:34:18.194
01:37:45.193 : en:01:37:45.193
01:40:51.003 : en:01:40:51.003 Скриншоты

Rutor

Last Downloads: jonathan saffraan foer reelsteady for after effects eplex 7 spherum fx black book french film complet en francais the love witch 2016 ita kamikaze love season 1