Give the life to this torrent: Кредо убийцы / Assassin's Creed (2016) BDRip 1080p от New-Team & qqss44 | Лицензия! After your Download, don't forget to Seed!

"Кредо убийцы / Assassin's Creed (2016) BDRip 1080p от New-Team & qqss44 | Лицензия"

Hash: a3979a7b6abefbafa012c2d6e8844f66e4ce88ec

Size: 7.8 GB
Age: 18/03/2017
Files: 1
Seeds: 18
Leeches: 8
Verified: no
Downloads: 1

Hide your ip, before downloads! To anonymously download this torrent Кредо убийцы / Assassin's Creed (2016) BDRip 1080p от New-Team & qqss44 | Лицензия, you need a SpyOFF VPN tool:

Get anonymous VPN
We searched for this here: Rutor
Torrent description Torrent found on:
Анонсы 1080p от qqss44✘ Кредо убийцы ✘ ═ Информация о фильме ═ ✦ Год выхода: 2016 ✦ Название: Кредо убийцы ✦ Жанр: Фантастика, фэнтези, боевик, приключения ✦ Оригинальное название: Assassin's Creed ✦ Режиссер: Джастин Курзель ✦ В ролях: Майкл Фассбендер, Марион Котийяр, Джереми Айронс, Брендан Глисон, Шарлотта Рэмплинг, Майкл Кеннет Уильямс, Дени Меноше, Ариана Лабед, Халид Абдалла, Эсси Дэвис ═ Описание фильма ═ Благодаря революционным технологиям, позволяющим вызвать в памяти воспоминания прежних поколений, Каллум Линч проживает приключения своего предка Агилара в Испании 15-го века. Каллум узнает, что является потомком членов загадочного тайного общества ассасинов. Накопив невероятные знания и навыки, он вступает в противостояние с могущественной и жестокой организацией тамплиеров в наши дни. ✦ Выпущено: Великобритания, Франция, Гонконг, США ✦ Продолжительность: 01:55:31 ✦ Перевод: дублированный - || Лицензия || ═ Информация о файле ═ ✦ Формат:| MKV | x264 | ✦ Качество: BDRip 1080p ✦ Видео: X264/MPEG4-AVC | 1920x804 (2.40:1) | ~8330 kbps | 23,976 fps ✦ Аудио Rus: AC3 | 48 KHz | 5.1 (Front: L С R Side: L R) + LFE | ~640 kbps ✦ Аудио Eng: AC3 | 48 KHz | 5.1 (Front: L С R Side: L R) + LFE | ~640 kbps ✦ Субтитры: рус. (форс., стилизованные, хардсаб) || рус. анг. (полные) || ✘ MediaInfo ✘
x264 : frame I:1254 Avg QP:12.03 size:206623
x264 : frame P:43019 Avg QP:14.30 size: 75519
x264 : frame B:121903 Avg QP:16.34 size: 30412
Общее
Уникальный идентификатор : 230321464121144147197168131796421295069 (0xAD464CEADADE339BB543DECB3EF7BBDD)
Полное имя : X:ATorrentAssassins.Creed.2016.BDRip.1080p.(qqss44).mkv
Формат : Matroska
Версия формата : Version 2
Размер файла : 7,75 Гбайт
Продолжительность : 1 ч. 55 м.
Общий поток : 9610 Кбит/сек
Название фильма : Assassins.Creed.2016.BDRip.1080p.(qqss44)
Дата кодирования : UTC 2017-03-18 08:45:01
Программа кодирования : mkvmerge v5.8.0 ('No Sleep / Pillow') built on Sep 2 2012 15:37:04
Библиотека кодирования : libebml v1.2.3 + libmatroska v1.3.0
Видео
Идентификатор : 1
Формат : AVC
Формат/Информация : Advanced Video Codec
Профиль формата : High@L4.1
Параметр CABAC формата : Да
Параметр ReFrames формата : 5 кадров
Идентификатор кодека : V_MPEG4/ISO/AVC
Продолжительность : 1 ч. 55 м.
Битрейт : 8330 Кбит/сек
Ширина : 1920 пикселей
Высота : 804 пикселя
Соотношение сторон : 2,40:1
Режим частоты кадров : Постоянный
Частота кадров : 23,976 (24000/1001) кадра/сек
Цветовое пространство : YUV
Субдискретизация насыщенности : 4:2:0
Битовая глубина : 8 бит
Тип развёртки : Прогрессивная
Бит/(Пиксели*Кадры) : 0.225
Размер потока : 6,57 Гбайт (85%)
Заголовок : Assassins.Creed.2016.BDRip.1080p.(qqss44)
Библиотека кодирования : x264 core 148 r2744kMod b97ae06
Настройки программы : cabac=1 / ref=5 / deblock=1:-3:-3 / analyse=0x3:0x133 / me=umh / subme=11 / psy=1 / fade_compensate=0.00 / psy_rd=1.00:0.00 / mixed_ref=1 / me_range=32 / chroma_me=1 / trellis=2 / 8x8dct=1 / cqm=0 / deadzone=21,11 / fast_pskip=0 / chroma_qp_offset=-2 / threads=12 / lookahead_threads=2 / sliced_threads=0 / nr=0 / decimate=0 / interlaced=0 / bluray_compat=0 / constrained_intra=0 / bframes=9 / b_pyramid=2 / b_adapt=2 / b_bias=0 / direct=3 / weightb=1 / open_gop=0 / weightp=2 / keyint=240 / keyint_min=23 / scenecut=40 / intra_refresh=0 / rc=2pass / mbtree=0 / bitrate=8330 / ratetol=1.0 / qcomp=0.66 / qpmin=0 / qpmax=69 / qpstep=4 / cplxblur=20.0 / qblur=0.5 / ip_ratio=1.40 / pb_ratio=1.30 / aq=3:0.70
Язык : English
Default : Да
Forced : Нет
Аудио #1
Идентификатор : 2
Формат : AC-3
Формат/Информация : Audio Coding 3
Расширение режима : CM (complete main)
Параметр Endianness формата : Big
Идентификатор кодека : A_AC3
Продолжительность : 1 ч. 55 м.
Вид битрейта : Постоянный
Битрейт : 640 Кбит/сек
Каналы : 6 каналов
Расположение каналов : Front: L C R, Side: L R, LFE
Частота : 48,0 КГц
Частота кадров : 31,250 кадров/сек (1536 spf)
Метод сжатия : С потерями
Размер потока : 529 Мбайт (7%)
Заголовок : DUB | DD5.1 @ 640 kbps
Язык : Russian
Default : Да
Forced : Нет
Аудио #2
Идентификатор : 3
Формат : AC-3
Формат/Информация : Audio Coding 3
Расширение режима : CM (complete main)
Параметр Endianness формата : Big
Идентификатор кодека : A_AC3
Продолжительность : 1 ч. 55 м.
Вид битрейта : Постоянный
Битрейт : 640 Кбит/сек
Каналы : 6 каналов
Расположение каналов : Front: L C R, Side: L R, LFE
Частота : 48,0 КГц
Частота кадров : 31,250 кадров/сек (1536 spf)
Метод сжатия : С потерями
Размер потока : 529 Мбайт (7%)
Заголовок : Original | DD5.1 @ 640 kbps
Язык : English
Default : Нет
Forced : Нет
Текст #1
Идентификатор : 4
Формат : UTF-8
Идентификатор кодека : S_TEXT/UTF8
Идентификатор кодека/Информация : UTF-8 Plain Text
Заголовок : FULL
Язык : Russian
Default : Нет
Forced : Нет
Текст #2
Идентификатор : 5
Формат : UTF-8
Идентификатор кодека : S_TEXT/UTF8
Идентификатор кодека/Информация : UTF-8 Plain Text
Заголовок : FULL
Язык : English
Default : Нет
Forced : Нет
Меню
00:00:00.000 : en:
00:06:04.155 : en:
00:09:32.697 : en:
00:12:47.517 : en:
00:16:47.715 : en:
00:21:07.433 : en:
00:26:56.448 : en:
00:31:55.080 : en:
00:38:06.284 : en:
00:41:43.167 : en:
00:46:33.040 : en:
00:50:10.257 : en:
00:53:04.390 : en:
00:56:17.624 : en:
00:59:26.480 : en:
01:02:32.582 : en:
01:06:37.035 : en:
01:13:08.759 : en:
01:18:45.888 : en:
01:23:01.101 : en:
01:30:17.996 : en:
01:34:18.194 : en:
01:37:45.193 : en:
01:40:51.003 : en: ✘ Скриншоты ✘ Релиз от:

Rutor

Last Downloads: azov films krivon pojkart baikal films puppet master 05 naruto puppet master axis of evil ova 巨乳人妻女教師催眠 1 5 star discography