Give the life to this torrent: Assassins Creed.2016.1080p.WEB-DL.mkv! After your Download, don't forget to Seed!

"Assassins Creed.2016.1080p.WEB-DL.mkv"

Hash: aa16c31f5d4fc36d5d867b91b7d5b2d8435595b3

Size: 4.2 GB
Age: 12/03/2017
Files: 1
Seeds: 89
Leeches: 38
Verified: no
Downloads: 6

Hide your ip, before downloads! To anonymously download this torrent Assassins Creed.2016.1080p.WEB-DL.mkv, you need a SpyOFF VPN tool:

Get anonymous VPN
We searched for this here: Rutor, Torrentroom
Torrent description Torrent found on:
Информация о фильме Название: Кредо убийцы Оригинальное название: Assassin's Creed Год выхода: 2016 Жанр: фантастика, фэнтези, боевик, приключения Режиссер: Джастин Курзель В ролях: Майкл Фассбендер, Марион Котийяр, Джереми Айронс, Брендан Глисон, Шарлотта Рэмплинг, Майкл Кеннет Уильямс, Дени Меноше, Ариана Лабед, Халид Абдалла, Эсси Дэвис О фильме:
Благодаря революционным технологиям, позволяющим вызвать в памяти воспоминания прежних поколений, Каллум Линч проживает приключения своего предка Агилара в Испании 15-го века. Каллум узнает, что является потомком членов загадочного тайного общества ассасинов. Накопив невероятные знания и навыки, он вступает в противостояние с могущественной и жестокой организацией тамплиеров в наши дни. Страна: Великобритания, Франция, Гонконг, США Продолжительность: 01:56:19 Перевод: Профессиональный (полное дублирование) Файл Кодек: x.264 Качество: WEB-DL 1080p Видео: AVC, 1916x800 (2.40:1), 23.976 fps, 4 575 Kbps (0.122 bit/pixel) Звук:
#1: AC-3, 48.0 KHz, 2 ch, 224 Kbps, CBR (Russian)
#2: AC-3, 48.0 KHz, 6 ch, 384 Kbps, CBR (English) Субтитры: Русские (Forced+Full), английские (Forced+Full) Семпл MediaInfo Общее
Уникальный идентификатор : 170522497585703577559306595131795130088 (0x8049703CE56677D4B157CE70B17F46E8)
Полное имя : D:Assassins Creed.2016.1080p.WEB-DL.mkv
Формат : Matroska
Версия формата : Version 4 / Version 2
Размер файла : 4,21 Гбайт
Продолжительность : 1 ч. 56 м.
Общий поток : 5181 Кбит/сек
Дата кодирования : UTC 2017-03-12 12:45:26
Программа кодирования : mkvmerge v8.3.0 ('Over the Horizon') 64bit
Библиотека кодирования : libebml v1.3.1 + libmatroska v1.4.2
Видео
Идентификатор : 1
Формат : AVC
Формат/Информация : Advanced Video Codec
Профиль формата : High@L4
Параметр CABAC формата : Да
Параметр ReFrames формата : 5 кадров
Идентификатор кодека : V_MPEG4/ISO/AVC
Продолжительность : 1 ч. 56 м.
Битрейт : 4575 Кбит/сек
Ширина : 1916 пикселей
Высота : 800 пикселей
Соотношение сторон : 2,40:1
Режим частоты кадров : Постоянный
Частота кадров : 23,976 (23976/1000) кадра/сек
Цветовое пространство : YUV
Субдискретизация насыщенности : 4:2:0
Битовая глубина : 8 бит
Тип развёртки : Прогрессивная
Бит/(Пиксели*Кадры) : 0.124
Размер потока : 3,72 Гбайт (88%)
Язык : English
Default : Да
Forced : Нет
Цветовой диапазон : Limited
Основные цвета : BT.709
Характеристики трансфера : BT.709
Коэффициенты матрицы : BT.709
Аудио #1
Идентификатор : 2
Формат : AC-3
Формат/Информация : Audio Coding 3
Расширение режима : CM (complete main)
Параметр Endianness формата : Big
Идентификатор кодека : A_AC3
Продолжительность : 1 ч. 55 м.
Вид битрейта : Постоянный
Битрейт : 224 Кбит/сек
Каналы : 2 канала
Расположение каналов : Front: L R
Частота : 48,0 КГц
Частота кадров : 31,250 кадров/сек (1536 spf)
Битовая глубина : 16 бит
Метод сжатия : С потерями
Размер потока : 185 Мбайт (4%)
Заголовок : Dub
Язык : Russian
Default : Да
Forced : Нет
Аудио #2
Идентификатор : 3
Формат : AC-3
Формат/Информация : Audio Coding 3
Расширение режима : CM (complete main)
Параметр Endianness формата : Big
Идентификатор кодека : A_AC3
Продолжительность : 1 ч. 55 м.
Вид битрейта : Постоянный
Битрейт : 384 Кбит/сек
Каналы : 6 каналов
Расположение каналов : Front: L C R, Side: L R, LFE
Частота : 48,0 КГц
Частота кадров : 31,250 кадров/сек (1536 spf)
Битовая глубина : 16 бит
Метод сжатия : С потерями
Размер потока : 317 Мбайт (7%)
Язык : English
Default : Нет
Forced : Нет
Текст #1
Идентификатор : 4
Формат : UTF-8
Идентификатор кодека : S_TEXT/UTF8
Идентификатор кодека/Информация : UTF-8 Plain Text
Продолжительность : 1 ч. 31 м.
Битрейт : 8 бит/сек
Count of elements : 124
Размер потока : 5,91 Кбайт (0%)
Заголовок : Forced
Язык : Russian
Default : Да
Forced : Нет
Текст #2
Идентификатор : 5
Формат : UTF-8
Идентификатор кодека : S_TEXT/UTF8
Идентификатор кодека/Информация : UTF-8 Plain Text
Продолжительность : 1 ч. 38 м.
Битрейт : 43 бит/сек
Count of elements : 679
Размер потока : 31,3 Кбайт (0%)
Заголовок : Full
Язык : Russian
Default : Нет
Forced : Нет
Текст #3
Идентификатор : 6
Формат : UTF-8
Идентификатор кодека : S_TEXT/UTF8
Идентификатор кодека/Информация : UTF-8 Plain Text
Продолжительность : 1 ч. 19 м.
Битрейт : 4 бит/сек
Count of elements : 107
Размер потока : 2,89 Кбайт (0%)
Заголовок : Forced
Язык : English
Default : Нет
Forced : Нет
Текст #4
Идентификатор : 7
Формат : UTF-8
Идентификатор кодека : S_TEXT/UTF8
Идентификатор кодека/Информация : UTF-8 Plain Text
Продолжительность : 1 ч. 38 м.
Битрейт : 24 бит/сек
Count of elements : 622
Размер потока : 17,9 Кбайт (0%)
Заголовок : Full
Язык : English
Default : Нет
Forced : Нет
Меню
00:00:00.000 : en:Chapter 01
00:06:02.153 : en:Chapter 02
00:09:30.694 : en:Chapter 03
00:12:45.513 : en:Chapter 04
00:16:45.711 : en:Chapter 05
00:21:05.429 : en:Chapter 06
00:26:54.444 : en:Chapter 07
00:31:53.075 : en:Chapter 08
00:38:04.279 : en:Chapter 09
00:41:41.162 : en:Chapter 10
00:46:31.035 : en:Chapter 11
00:50:08.252 : en:Chapter 12
00:53:02.384 : en:Chapter 13
00:56:15.618 : en:Chapter 14
00:59:24.473 : en:Chapter 15
01:02:30.575 : en:Chapter 16
01:06:35.027 : en:Chapter 17
01:13:06.752 : en:Chapter 18
01:18:43.880 : en:Chapter 19
01:23:59.153 : en:Chapter 20
01:30:15.988 : en:Chapter 21
01:34:16.186 : en:Chapter 22
01:37:43.184 : en:Chapter 23
01:40:49.203 : en:Chapter 24 Скриншоты

Rutor

Last Downloads: the recruit 2003 eng jessica rizzo torrent ita roccos x treme gapes 1080p gordon goodwin s rebecca linares hi res