Give the life to this torrent: Кредо убийцы / Assassin's Creed (2016) WEB-DL 1080p | Line! After your Download, don't forget to Seed!

"Кредо убийцы / Assassin's Creed (2016) WEB-DL 1080p | Line"

Hash: 9f38b8adb87ddf65d77dced9cca557f2a3b9677c

Size: 4.2 GB
Age: 10/03/2017
Files: 1
Seeds: 56
Leeches: 6
Verified: no
Downloads: 12

Hide your ip, before downloads! To anonymously download this torrent Кредо убийцы / Assassin's Creed (2016) WEB-DL 1080p | Line, you need a SpyOFF VPN tool:

Get anonymous VPN
We searched for this here: Rutor
Torrent description Torrent found on:
Производство: Великобритания, Франция, Гонконг, США, Тайвань, Мальта, Канада / Regency Enterprises, Ubisoft, New Regency Pictures, Ubisoft Motion Pictures DMC Film Kennedy/Marshall Company, The RatPac Entertainment, Alpha Pictures, CatchPlay, Monarchy Enterprises S.a.r.l., Helicopter Film, Services Latina Pictures Жанр: Фантастика, Фэнтези, Боевик, Приключения Режиссер: Джастин Курзель Актеры: Майкл Фассбендер, Марион Котийяр, Джереми Айронс, Брендан Глисон, Шарлотта Рэмплинг, Майкл Кеннет Уильямс, Дени Меноше, Ариана Лабед, Халид Абдалла, Эсси Дэвис ... Описание:
Благодаря революционным технологиям, позволяющим вызвать в памяти воспоминания прежних поколений, Каллум Линч проживает приключения своего предка Агилара в Испании 15-го века. Каллум узнает, что является потомком членов загадочного тайного общества ассасинов. Накопив невероятные знания и навыки, он вступает в противостояние с могущественной и жестокой организацией тамплиеров в наши дни. Продолжительность: 01:56:19 Качество видео: WEB-DL 1080p Сэмпл Перевод: Дублированный (Line) Субтитры: Русские (Full), Английские (Forced), Английские (Full) Видео: AVC, 1916x800 (2.40:1), 24.000 fps, 4 575 Kbps (0.124 bit/pixel) Аудио #1: AC-3, 48.0 KHz, 2 ch, 256 Kbps, CBR (Russian) Аудио #2: AC-3, 48.0 KHz, 6 ch, 384 Kbps, CBR (English) Mediainfo: General
Complete name : I:Assassins.Creed.2016.1080p.WEB-DL.H264.NNMClub.mkv
Format : Matroska
Format version : Version 4 / Version 2
File size : 4.24 GiB
Duration : 1 h 56 min
Overall bit rate : 5 213 kb/s
Encoded date : UTC 2017-03-10 17:11:13
Writing application : mkvmerge v9.9.0 ('Pick Up') 64bit
Writing library : libebml v1.3.4 + libmatroska v1.4.5
Video
ID : 1
Format : AVC
Format/Info : Advanced Video Codec
Format profile : High@L4
Format settings, CABAC : Yes
Format settings, ReFrames : 5 frames
Codec ID : V_MPEG4/ISO/AVC
Duration : 1 h 56 min
Bit rate : 4 575 kb/s
Width : 1 916 pixels
Height : 800 pixels
Display aspect ratio : 2.40:1
Frame rate mode : Constant
Frame rate : 23.976 (23976/1000) FPS
Color space : YUV
Chroma subsampling : 4:2:0
Bit depth : 8 bits
Scan type : Progressive
Bits/(Pixel*Frame) : 0.124
Stream size : 3.72 GiB (88%)
Title : NNMClub.to
Language : English
Default : Yes
Forced : No
Color range : Limited
Color primaries : BT.709
Transfer characteristics : BT.709
Matrix coefficients : BT.709
Audio #1
ID : 2
Format : AC-3
Format/Info : Audio Coding 3
Mode extension : CM (complete main)
Format settings, Endianness : Big
Codec ID : A_AC3
Duration : 1 h 55 min
Bit rate mode : Constant
Bit rate : 256 kb/s
Channel(s) : 2 channels
Channel positions : Front: L R
Sampling rate : 48.0 kHz
Frame rate : 31.250 FPS (1536 spf)
Bit depth : 16 bits
Compression mode : Lossy
Stream size : 211 MiB (5%)
Title : LINE
Language : Russian
Default : Yes
Forced : No
Audio #2
ID : 3
Format : AC-3
Format/Info : Audio Coding 3
Mode extension : CM (complete main)
Format settings, Endianness : Big
Codec ID : A_AC3
Duration : 1 h 55 min
Bit rate mode : Constant
Bit rate : 384 kb/s
Channel(s) : 6 channels
Channel positions : Front: L C R, Side: L R, LFE
Sampling rate : 48.0 kHz
Frame rate : 31.250 FPS (1536 spf)
Bit depth : 16 bits
Compression mode : Lossy
Stream size : 317 MiB (7%)
Language : English
Default : No
Forced : No
Text #1
ID : 4
Format : UTF-8
Codec ID : S_TEXT/UTF8
Codec ID/Info : UTF-8 Plain Text
Duration : 1 h 38 min
Bit rate : 43 b/s
Count of elements : 679
Stream size : 31.3 KiB (0%)
Title : FULL
Language : Russian
Default : No
Forced : No
Text #2
ID : 5
Format : UTF-8
Codec ID : S_TEXT/UTF8
Codec ID/Info : UTF-8 Plain Text
Duration : 1 h 19 min
Bit rate : 4 b/s
Count of elements : 107
Stream size : 2.89 KiB (0%)
Title : FORCED
Language : English
Default : No
Forced : No
Text #3
ID : 6
Format : UTF-8
Codec ID : S_TEXT/UTF8
Codec ID/Info : UTF-8 Plain Text
Duration : 1 h 38 min
Bit rate : 24 b/s
Count of elements : 622
Stream size : 17.9 KiB (0%)
Language : English
Default : No
Forced : No
Menu
00:00:00.000 : en:Chapter 01
00:06:02.153 : en:Chapter 02
00:09:30.694 : en:Chapter 03
00:12:45.513 : en:Chapter 04
00:16:45.711 : en:Chapter 05
00:21:05.429 : en:Chapter 06
00:26:54.444 : en:Chapter 07
00:31:53.075 : en:Chapter 08
00:38:04.279 : en:Chapter 09
00:41:41.162 : en:Chapter 10
00:46:31.035 : en:Chapter 11
00:50:08.252 : en:Chapter 12
00:53:02.384 : en:Chapter 13
00:56:15.618 : en:Chapter 14
00:59:24.473 : en:Chapter 15
01:02:30.575 : en:Chapter 16
01:06:35.027 : en:Chapter 17
01:13:06.752 : en:Chapter 18
01:18:43.880 : en:Chapter 19
01:23:59.153 : en:Chapter 20
01:30:15.988 : en:Chapter 21
01:34:16.186 : en:Chapter 22
01:37:43.184 : en:Chapter 23
01:40:49.203 : en:Chapter 24 Скриншоты:

Rutor

Last Downloads: холодное сердце 2 맛있는 섹스 맛있는 상상 2012 맛있는 섹스 맛있는 상상 맛있는 섹스 맛있는 상상 2012 로맨스 멜로 miracles from the vault iv ぷちclub 半熟とまと 沙恵 sae 中学1年生