Give the life to this torrent: Кредо убийцы / Assassin's Creed (2016) WEB-DLRip от k.e.n & NNMClub | D! After your Download, don't forget to Seed!

"Кредо убийцы / Assassin's Creed (2016) WEB-DLRip от k.e.n & NNMClub | D"

Hash: 271386e088a1235cbad547454cad89e85898a389

Size: 1.4 GB
Age: 10/03/2017
Files: 1
Seeds: 14
Leeches: 5
Verified: no
Downloads: 1

Hide your ip, before downloads! To anonymously download this torrent Кредо убийцы / Assassin's Creed (2016) WEB-DLRip от k.e.n & NNMClub | D, you need a SpyOFF VPN tool:

Get anonymous VPN
We searched for this here: Rutor
Torrent description Torrent found on:
Производство: Великобритания, Франция, Гонконг, США, Тайвань, Мальта, Канада Жанр: Фантастика, фэнтези, боевик, приключения Продолжительность: 01:56:19 Перевод: Профессиональный (дублированный) Официальный звук Субтитры: Русские (вшитые на надписи и испанскую речь) Режиссер: Джастин Курзель Продюсер: Маркус Барметтлер, Жан-Жюльен Баронне, Кристин Бёрджесс-Кемар Актеры: Майкл Фассбендер, Марион Котийяр, Джереми Айронс, Брендан Глисон, Шарлотта Рэмплинг, Майкл Кеннет Уильямс Описание:
Благодаря революционным технологиям, позволяющим вызвать в памяти воспоминания прежних поколений, Каллум Линч проживает приключения своего предка Агилара в Испании 15-го века. Каллум узнает, что является потомком членов загадочного тайного общества ассасинов. Накопив невероятные знания и навыки, он вступает в противостояние с могущественной и жестокой организацией тамплиеров в наши дни. Качество видео: WEB-DLRip Видео: 720x304 (2.37:1), 23.976 fps, XviD build 73 ~1403 kbps, 0.27 bit/pixel Аудио: 48 kHz, AC3 Dolby Digital, 2/0 (L,R) ch, ~256 kbps Mediainfo: Формат : AVI
Формат/Информация : Audio Video Interleave
Размер файла : 1,35 Гбайт
Продолжительность : 1 ч. 56 м.
Общий поток : 1667 Кбит/сек
Программа кодирования : VirtualDubModRus 1.5.10.2 (build 2542/release)
Библиотека кодирования : VirtualDubMod build 2542/release
Видео
Идентификатор : 0
Формат : MPEG-4 Visual
Профиль формата : Advanced Simple@L5
Параметр BVOP формата : 1
Параметр QPel формата : Нет
Параметр GMC формата : Без точки перехода
Параметр матрицы формата : Выборочная
Идентификатор кодека : XVID
Идентификатор кодека/Подсказка : XviD
Продолжительность : 1 ч. 56 м.
Битрейт : 1404 Кбит/сек
Ширина : 720 пикселей
Высота : 304 пикселя
Соотношение сторон : 2,35:1
Частота кадров : 23,976 (24000/1001) кадра/сек
Цветовое пространство : YUV
Субдискретизация насыщенности : 4:2:0
Битовая глубина : 8 бит
Тип развёртки : Прогрессивная
Метод сжатия : С потерями
Бит/(Пиксели*Кадры) : 0.267
Размер потока : 1,14 Гбайт (84%)
Библиотека кодирования : XviD 73
Аудио
Идентификатор : 1
Формат : AC-3
Формат/Информация : Audio Coding 3
Расширение режима : CM (complete main)
Параметр Endianness формата : Big
Идентификатор кодека : 2000
Продолжительность : 1 ч. 55 м.
Вид битрейта : Постоянный
Битрейт : 256 Кбит/сек
Каналы : 2 канала
Расположение каналов : Front: L R
Частота : 48,0 КГц
Частота кадров : 31,250 кадров/сек (1536 spf)
Битовая глубина : 16 бит
Метод сжатия : С потерями
Размер потока : 211 Мбайт (15%)
Выравнивание : Разделение по промежуткам
Продолжительность промежутка : 42 мс. (1,01 видеокадр)
Время предзагрузки промежутка : 500 мс. Скриншоты:

Rutor

Last Downloads: jonathan saffraan foer reelsteady for after effects eplex 7 spherum fx black book french film complet en francais the love witch 2016 ita kamikaze love season 1