Give the life to this torrent: Passengers.(2016).hdrip.x264.afm.mkv! After your Download, don't forget to Seed!

"Passengers.(2016).hdrip.x264.afm.mkv"

Hash: b54c1d9338d3a2a3849ed7954f32e742cc778772

Size: 1.5 GB
Age: 01/03/2017
Files: 1
Seeds: 1391
Leeches: 23
Verified: no
Downloads: 24

Hide your ip, before downloads! To anonymously download this torrent Passengers.(2016).hdrip.x264.afm.mkv, you need a SpyOFF VPN tool:

Get anonymous VPN
We searched for this here: Torrentroom, Rutor, Seedpeer
Torrent description Torrent found on:
Пассажиры / Passengers Страна: США Производство: Columbia Pictures, LStar Capital, Original Film, Village Roadshow Pictures Год выпуска: 2016 Жанр: фантастика, драма, мелодрама, приключения Продолжительность: 01:56:10 Режиссер: Мортен Тильдум Автор сценария: Джон Спэйтс В ролях: Дженнифер Лоуренс, Крис Пратт, Майкл Шин, Энди Гарсиа, Лоренс Фишбёрн, Джейми Соричелли, Кимберли Баттиста, Аврора Перрино Описание: Космический корабль с 5,000 пассажиров на борту, погруженных на время полета в искусственный сон, держит курс на планету, которая станет для них новым домом. Всё идет по плану, но из-за сбоя системы двое пассажиров неожиданно просыпаются и понимают, что до конечного пункта путешествия — 90 лет пути, и им суждено остаток жизни провести вдвоем в роскошных интерьерах корабля, оснащенного по последнему слову техники. Постепенно Джима и Аврору начинает непреодолимо тянуть друг к другу, но корабль попадает в беду, и теперь в их руках — жизнь и судьба всех обитателей корабля... Перевод: Профессиональный (полное дублирование) | iTunes Субтитры: русские (forced) Качество: HDRip-AVC | исходник Passengers.2016.1080p.BluRay.x264-SPARKS Формат: МКV Видео кодек: AVC Аудио кодек: АС3 Видео: 1032х432 (2.40:1), 23.976 fps, MPEG-4 AVC ~1 420 kbps avg Аудио: 48.0 kHz, AC3 Dolby Digital, 3/2 (L,C,R,l,r) + LFE ch, ~384 kbps Формат субтитров: UTF-8 Plain Text Дата премьеры (мир): 21 декабря 2016 Дата премьеры (РФ): 22 декабря 2016, «WDSSPR» Релиз от: AFM Media Info General
Format : Matroska
Format version : Version 4 / Version 2
File size : 1.46 GiB
Duration : 1h 56 min
Overall bit rate : 1 804 kb/s
Movie name : Пассажиры / Passengers (2016) :: AFM ::
Encoded date : UTC 2017-03-01 06:35:58
Writing application : mkvmerge v8.3.0 ('Over the Horizon') 32bit
Writing library : libebml v1.3.1 + libmatroska v1.4.2
Video
ID : 1
Format : AVC
Format/Info : Advanced Video Codec
Format profile : High@L4.1
Format settings, CABAC : Yes
Format settings, ReFrames : 10 frames
Codec ID : V_MPEG4/ISO/AVC
Duration : 1h 56 min
Bit rate : 1 420 kb/s
Width : 1 032 pixels
Height : 432 pixels
Display aspect ratio : 2.40:1
Frame rate mode : Constant
Frame rate : 23.976 (24000/1001) FPS
Color space : YUV
Chroma subsampling : 4:2:0
Bit depth : 8 bits
Scan type : Progressive
Bits/(Pixel*Frame) : 0.133
Stream size : 1.12 GiB (77%)
Title : HDRip by AFM
Writing library : x264 core 148 r2762+56 6284cf3 t_mod_Custom
Encoding settings : cabac=1 / ref=10 / deblock=1:-2:-2 / analyse=0x3:0x113 / me=umh / subme=10 / psy=1 / fade_compensate=0.00 / psy_rd=1.00:0.00 / mixed_ref=1 / me_range=32 / chroma_me=1 / trellis=2 / 8x8dct=1 / cqm=0 / deadzone=21,11 / fast_pskip=0 / chroma_qp_offset=-2 / threads=6 / lookahead_threads=1 / sliced_threads=0 / nr=0 / decimate=0 / interlaced=0 / bluray_compat=0 / constrained_intra=0 / fgo=0 / bframes=11 / b_pyramid=2 / b_adapt=2 / b_bias=0 / direct=3 / weightb=1 / open_gop=0 / weightp=2 / keyint=240 / keyint_min=23 / scenecut=40 / intra_refresh=0 / rc_lookahead=60 / rc=2pass / mbtree=0 / bitrate=1420 / ratetol=1.0 / qcomp=0.65 / qpmin=0:0:0 / qpmax=69:69:69 / qpstep=4 / cplxblur=20.0 / qblur=0.5 / vbv_maxrate=50000 / vbv_bufsize=62500 / nal_hrd=none / filler=0 / ip_ratio=1.35 / pb_ratio=1.30 / aq=3:0.85 / aq-sensitivity=10.00 / aq-factor=1.00:1.00:1.00 / aq2=0 / aq3=0 / zones=157466,167133,q=30
Language : English
Default : Yes
Forced : No
Audio
ID : 2
Format : AC-3
Format/Info : Audio Coding 3
Mode extension : CM (complete main)
Format settings, Endianness : Big
Codec ID : A_AC3
Duration : 1h 56 min
Bit rate mode : Constant
Bit rate : 384 kb/s
Channel(s) : 6 channels
Channel positions : Front: L C R, Side: L R, LFE
Sampling rate : 48.0 kHz
Frame rate : 31.250 FPS (1536 spf)
Compression mode : Lossy
Stream size : 319 MiB (21%)
Title : Dub, AC3 5.1 ~384 kbps
Language : Russian
Default : Yes
Forced : No
Text
ID : 3
Format : UTF-8
Codec ID : S_TEXT/UTF8
Codec ID/Info : UTF-8 Plain Text
Title : forced
Language : Russian
Default : Yes
Forced : No
Menu
00:00:00.000 : en:00:00:00.000
00:07:04.674 : en:00:07:04.674
00:14:38.211 : en:00:14:38.211
00:20:33.649 : en:00:20:33.649
00:25:06.338 : en:00:25:06.338
00:30:30.662 : en:00:30:30.662
00:40:47.987 : en:00:40:47.987
00:50:23.020 : en:00:50:23.020
00:57:28.945 : en:00:57:28.945
01:02:54.813 : en:01:02:54.813
01:10:47.160 : en:01:10:47.160
01:17:48.664 : en:01:17:48.664
01:25:17.029 : en:01:25:17.029
01:31:45.041 : en:01:31:45.041
01:37:53.242 : en:01:37:53.242
01:42:18.549 : en:01:42:18.549 Скриншоты

Rutor

Last Downloads: david archer author vrカノジョ stories by ravindra bath tigore chinese homemade tsai ming liang river mk