Give the life to this torrent: Пассажиры / Passengers (2016) HDTVRip 1080p | Звук с CAMRip! After your Download, don't forget to Seed!

"Пассажиры / Passengers (2016) HDTVRip 1080p | Звук с CAMRip"

Hash: e152bcda4021e03a6bccc0323dbb3273cf7d612e

Size: 3.3 GB
Age: 03/02/2017
Files: 1
Seeds: 902
Leeches: 6
Verified: no
Downloads: 1

Hide your ip, before downloads! To anonymously download this torrent Пассажиры / Passengers (2016) HDTVRip 1080p | Звук с CAMRip, you need a SpyOFF VPN tool:

Get anonymous VPN
We searched for this here: Torrentroom, Rutor
Torrent description Torrent found on:
Информация о фильме Название: Пассажиры Оригинальное название: Passengers Год выхода: 2016 Жанр: фантастика, драма, мелодрама, приключения Режиссер: Мортен Тильдум В ролях: Дженнифер Лоуренс, Крис Пратт, Майкл Шин, Лоренс Фишбёрн, Энди Гарсиа, Винс Фостер, Кара Мишель Уайлдер, Конор Брофи, Джули Серда, Аврора Перрино О фильме:
Космический корабль с 5,000 пассажиров на борту, погруженных на время полета в искусственный сон, держит курс на планету, которая станет для них новым домом. Всё идет по плану, но из-за сбоя системы двое пассажиров неожиданно просыпаются и понимают, что до конечного пункта путешествия — 90 лет пути, и им суждено остаток жизни провести вдвоем в роскошных интерьерах корабля, оснащенного по последнему слову техники. Постепенно Джима и Аврору начинает непреодолимо тянуть друг к другу, но корабль попадает в беду, и теперь в их руках — жизнь и судьба всех обитателей корабля. Страна: США / Columbia Pictures, Company Films, LStar Capital, Original Film Продолжительность: 01:56:09 Перевод: Дублированный Субтитры: Корейские (хардсаб)
Реклама отсутствует (совсем). Файл Кодек: MPEG-4 AVC Качество: HDTVRip 1080p Видео: 3500 Кбит/с, 1920x1080 Звук: Русский (AC3, 2 ch, 256 Кбит/с), английский (AAC, 2 ch, 224 Кбит/с) MI General
Unique ID : 239417560731557146113274688943431184701 (0xB41E251AF3B9250FA0AEEEE12055713D)
Complete name :
Format : Matroska
Format version : Version 4 / Version 2
File size : 3.25 GiB
Duration : 1h 56mn
Overall bit rate : 4 008 Kbps
Movie name : Пассажиры by D_I_A_B_L_O
Encoded date : UTC 2017-02-03 20:57:18
Writing application : mkvmerge v7.2.0 ('On Every Street') 64bit built on Sep 13 2014 15:52:10
Writing library : libebml v1.3.0 + libmatroska v1.4.1
Video
ID : 1
Format : AVC
Format/Info : Advanced Video Codec
Format profile : Baseline@L4
Format settings, CABAC : No
Format settings, ReFrames : 1 frame
Codec ID : V_MPEG4/ISO/AVC
Duration : 1h 56mn
Bit rate : 3 500 Kbps
Width : 1 920 pixels
Height : 1 080 pixels
Display aspect ratio : 16:9
Frame rate mode : Constant
Frame rate : 29.747 fps
Color space : YUV
Chroma subsampling : 4:2:0
Bit depth : 8 bits
Scan type : Progressive
Bits/(Pixel*Frame) : 0.057
Stream size : 2.86 GiB (88%)
Writing library : x264 core 148 r2705 3f5ed56
Encoding settings : cabac=0 / ref=1 / deblock=1:0:0 / analyse=0x1:0x111 / me=hex / subme=2 / psy=1 / psy_rd=1.00:0.00 / mixed_ref=0 / me_range=16 / chroma_me=1 / trellis=0 / 8x8dct=0 / cqm=0 / deadzone=21,11 / fast_pskip=1 / chroma_qp_offset=0 / threads=6 / lookahead_threads=2 / sliced_threads=0 / nr=0 / decimate=1 / interlaced=0 / bluray_compat=0 / constrained_intra=0 / bframes=0 / weightp=0 / keyint=250 / keyint_min=25 / scenecut=40 / intra_refresh=0 / rc_lookahead=10 / rc=abr / mbtree=1 / bitrate=3500 / ratetol=1.0 / qcomp=0.60 / qpmin=0 / qpmax=69 / qpstep=4 / ip_ratio=1.40 / aq=1:1.00
Language : English
Default : Yes
Forced : No
Audio #1
ID : 2
Format : AC-3
Format/Info : Audio Coding 3
Mode extension : CM (complete main)
Format settings, Endianness : Big
Codec ID : A_AC3
Duration : 1h 56mn
Bit rate mode : Constant
Bit rate : 256 Kbps
Channel(s) : 2 channels
Channel positions : Front: L R
Sampling rate : 48.0 KHz
Frame rate : 31.250 fps (1536 spf)
Compression mode : Lossy
Delay relative to video : -46ms
Stream size : 212 MiB (6%)
Title : Дубляж
Language : Russian
Default : Yes
Forced : No
Audio #2
ID : 3
Format : AAC
Format/Info : Advanced Audio Codec
Format profile : LC
Codec ID : A_AAC
Duration : 1h 56mn
Bit rate : 224 Kbps
Channel(s) : 2 channels
Channel positions : Front: L R
Sampling rate : 44.1 KHz
Frame rate : 43.066 fps (1024 spf)
Compression mode : Lossy
Delay relative to video : -46ms
Stream size : 186 MiB (6%)
Title : Оригинал
Language : English
Default : No
Forced : No

Rutor

Last Downloads: vnds 3041 edテーマ waiting for the rain 坂本真綾 best time ever with 한성주 유출 blackfield concrete jungle movie