Give the life to this torrent: Почему он? / Why Him? (2016) BDRip 1080p | iTunes! After your Download, don't forget to Seed!

"Почему он? / Why Him? (2016) BDRip 1080p | iTunes"

Hash: 5a1fbf4551910d9789f6f421c3fc7d2fbd24a85c

Size: 13.3 GB
Age: 17/03/2017
Files: 1
Seeds: 938
Leeches: 86
Verified: no
Downloads: 1

Hide your ip, before downloads! To anonymously download this torrent Почему он? / Why Him? (2016) BDRip 1080p | iTunes, you need a SpyOFF VPN tool:

Get anonymous VPN
We searched for this here: Rutor
Torrent description Torrent found on:
Информация о фильме Название: Почему он? Оригинальное название: Why Him? Год выхода: 2016 Жанр: комедия Режиссер: Джон Гамбург В ролях: Брайан Крэнстон, Джеймс Франко, Зои Дойч, Меган Маллалли, Гриффин Глюк, Кигэн-Майкл Ки, Седрик «Развлекатель», Зак Перлман, Адам Дивайн, Боб Стефенсон О фильме: Глава семейства вступает в противостояние с молодым и богатым парнем своей дочери. Страна: США, Камбоджа Продолжительность: 01:51:12 Перевод: Профессиональный (дублированный) iTunes Файл Формат: MKV Видео: MPEG-4 AVC, 15.2 Мбит/с, 1920x1038 Aудио#1: Russian: 48 kHz, AC3, 3/2 (L,C,R,l,r) + LFE ch, ~384.00 kbps avg Aудио#2: English: 48 kHz, DTS, 3/2 (L,C,R,l,r) + LFE ch, ~1510 kbps avg Субтитры: английские MediaInfo General
General
Complete name : Why.Him.2016.BDRip.1080p.mkv
Format : Matroska
Format version : Version 4 / Version 2
File size : 13.3 GiB
Duration : 1h 51mn
Overall bit rate : 17.1 Mbps
Movie name : by Respector
Encoded date : UTC 2017-03-17 08:54:33
Writing application : mkvmerge v7.9.0 ('Birds') 64bit
Writing library : libebml v1.3.1 + libmatroska v1.4.2
Video
ID : 1
Format : AVC
Format/Info : Advanced Video Codec
Format profile : High@L4.1
Format settings, CABAC : Yes
Format settings, ReFrames : 4 frames
Codec ID : V_MPEG4/ISO/AVC
Duration : 1h 51mn
Bit rate : 15.2 Mbps
Width : 1 920 pixels
Height : 1 038 pixels
Display aspect ratio : 1.85:1
Frame rate mode : Constant
Frame rate : 23.976 (24000/1001) fps
Color space : YUV
Chroma subsampling : 4:2:0
Bit depth : 8 bits
Scan type : Progressive
Bits/(Pixel*Frame) : 0.318
Stream size : 11.8 GiB (89%)
Writing library : x264 core 148 r2744kMod b97ae06
Encoding settings : cabac=1 / ref=4 / deblock=1:-3:-3 / analyse=0x3:0x133 / me=umh / subme=11 / psy=1 / fade_compensate=0.00 / psy_rd=1.05:0.00 / mixed_ref=1 / me_range=48 / chroma_me=1 / trellis=2 / 8x8dct=1 / cqm=0 / deadzone=21,11 / fast_pskip=0 / chroma_qp_offset=-2 / threads=24 / lookahead_threads=4 / sliced_threads=0 / nr=0 / decimate=0 / interlaced=0 / bluray_compat=0 / constrained_intra=0 / bframes=8 / b_pyramid=2 / b_adapt=2 / b_bias=0 / direct=3 / weightb=1 / open_gop=0 / weightp=2 / keyint=240 / keyint_min=24 / scenecut=40 / intra_refresh=0 / rc=crf / mbtree=0 / crf=18.5000 / qcomp=0.70 / qpmin=0 / qpmax=69 / qpstep=4 / ip_ratio=1.25 / pb_ratio=1.20 / aq=3:0.80
Default : Yes
Forced : No
Audio #1
ID : 2
Format : AC-3
Format/Info : Audio Coding 3
Mode extension : CM (complete main)
Format settings, Endianness : Big
Codec ID : A_AC3
Duration : 1h 51mn
Bit rate mode : Constant
Bit rate : 384 Kbps
Channel(s) : 6 channels
Channel positions : Front: L C R, Side: L R, LFE
Sampling rate : 48.0 KHz
Frame rate : 31.250 fps (1536 spf)
Compression mode : Lossy
Stream size : 305 MiB (2%)
Title : Dub
Language : Russian
Default : Yes
Forced : Yes
Audio #2
ID : 3
Format : DTS
Format/Info : Digital Theater Systems
Mode : 16
Format settings, Endianness : Big
Codec ID : A_DTS
Duration : 1h 51mn
Bit rate mode : Constant
Bit rate : 1 509 Kbps
Channel(s) : 6 channels
Channel positions : Front: L C R, Side: L R, LFE
Sampling rate : 48.0 KHz
Frame rate : 93.750 fps (512 spf)
Bit depth : 24 bits
Compression mode : Lossy
Stream size : 1.17 GiB (9%)
Language : English
Default : No
Forced : No
Text
ID : 4
Format : UTF-8
Codec ID : S_TEXT/UTF8
Codec ID/Info : UTF-8 Plain Text
Duration : 1h 47mn
Bit rate : 96 bps
Count of elements : 2719
Stream size : 75.9 KiB (0%)
Language : English
Default : No
Forced : No
Menu
00:00:00.000 : en:00:00:00.000
00:05:00.550 : en:00:05:00.550
00:09:34.365 : en:00:09:34.365
00:12:33.711 : en:00:12:33.711
00:18:06.961 : en:00:18:06.961
00:21:08.642 : en:00:21:08.642
00:25:57.264 : en:00:25:57.264
00:30:19.818 : en:00:30:19.818
00:35:45.101 : en:00:35:45.101
00:42:06.482 : en:00:42:06.482
00:45:49.705 : en:00:45:49.705
00:49:13.284 : en:00:49:13.284
00:55:03.634 : en:00:55:03.634
00:57:58.892 : en:00:57:58.892
01:03:01.069 : en:01:03:01.069
01:08:44.871 : en:01:08:44.871
01:12:01.108 : en:01:12:01.108
01:19:14.625 : en:01:19:14.625
01:23:03.812 : en:01:23:03.812
01:26:36.358 : en:01:26:36.358
01:31:44.916 : en:01:31:44.916
01:35:31.684 : en:01:35:31.684
01:40:05.416 : en:01:40:05.416
01:45:13.807 : en:01:45:13.807 Скриншоты

Rutor

Last Downloads: pop france ron nagle bad rice blackfield karissa diamond in the morning after ii 最新东京热 检查身体 html rct 318 女子アナの穴に中出し