Give the life to this torrent: Why.Him.2016.BDRip.1080p.mkv! After your Download, don't forget to Seed!

"Why.Him.2016.BDRip.1080p.mkv"

Hash: 3f9e8514e8d916da98147aedd678875dc4874a8f

Size: 8.2 GB
Age: 16/03/2017
Files: 1
Seeds: 87
Leeches: 8
Verified: no
Downloads: 6

Hide your ip, before downloads! To anonymously download this torrent Why.Him.2016.BDRip.1080p.mkv, you need a SpyOFF VPN tool:

Get anonymous VPN
We searched for this here: Rutor, Torrentroom
Torrent description Torrent found on:
Информация о фильме Название: Почему он? Оригинальное название: Why Him? Год выхода: 2016 Жанр: комедия Режиссер: Джон Гамбург В ролях: Брайан Крэнстон, Джеймс Франко, Зои Дойч, Меган Маллалли, Гриффин Глюк, Кигэн-Майкл Ки, Седрик «Развлекатель», Зак Перлман, Адам Дивайн, Боб Стефенсон О фильме: Глава семейства вступает в противостояние с молодым и богатым парнем своей дочери. Страна: США, Камбоджа Продолжительность: 01:51:12 Перевод: Профессиональный (дублированный) iTunes Файл Формат: MKV Видео: 1920x1040 at 23.976 fps, x264@L4.1, ~8718 kbps avg Aудио#1: Russian: 48 kHz, AC3, 3/2 (L,C,R,l,r) + LFE ch, ~384.00 kbps avg Aудио#2: English: 48 kHz, DTS, 3/2 (L,C,R,l,r) + LFE ch, ~1510 kbps avg Субтитры: нет MediaInfo General
Unique ID : 240594612479801883698328757406075054350 (0xB500D63CAC80D6C3A226C82397E9E90E)
Complete name : Why.Him.2016.BDRip.1080p.mkv
Format : Matroska
Format version : Version 4 / Version 2
File size : 8.24 GiB
Duration : 1 h 51 min
Overall bit rate : 10.6 Mb/s
Encoded date : UTC 2017-03-16 19:39:39
Writing application : mkvmerge v8.3.0 ('Over the Horizon') 64bit
Writing library : libebml v1.3.1 + libmatroska v1.4.2
Video
ID : 1
Format : AVC
Format/Info : Advanced Video Codec
Format profile : High@L4.1
Format settings, CABAC : Yes
Format settings, ReFrames : 4 frames
Codec ID : V_MPEG4/ISO/AVC
Duration : 1 h 51 min
Bit rate : 8 718 kb/s
Width : 1 920 pixels
Height : 1 040 pixels
Display aspect ratio : 1.85:1
Frame rate mode : Constant
Frame rate : 23.976 FPS
Color space : YUV
Chroma subsampling : 4:2:0
Bit depth : 8 bits
Scan type : Progressive
Bits/(Pixel*Frame) : 0.182
Stream size : 6.76 GiB (82%)
Writing library : x264 core 148 r2744 b97ae06
Encoding settings : cabac=1 / ref=4 / deblock=1:0:0 / analyse=0x3:0x133 / me=umh / subme=7 / psy=1 / psy_rd=1.00:0.00 / mixed_ref=1 / me_range=16 / chroma_me=1 / trellis=1 / 8x8dct=1 / cqm=0 / deadzone=21,11 / fast_pskip=0 / chroma_qp_offset=-2 / threads=12 / lookahead_threads=2 / sliced_threads=0 / nr=0 / decimate=1 / interlaced=0 / bluray_compat=0 / constrained_intra=0 / bframes=3 / b_pyramid=2 / b_adapt=1 / b_bias=0 / direct=1 / weightb=1 / open_gop=0 / weightp=2 / keyint=250 / keyint_min=23 / scenecut=40 / intra_refresh=0 / rc_lookahead=40 / rc=2pass / mbtree=1 / bitrate=8718 / ratetol=1.0 / qcomp=0.60 / qpmin=0 / qpmax=69 / qpstep=4 / cplxblur=20.0 / qblur=0.5 / ip_ratio=1.40 / aq=1:1.00
Language : English
Default : Yes
Forced : No
Audio #1
ID : 2
Format : AC-3
Format/Info : Audio Coding 3
Mode extension : CM (complete main)
Format settings, Endianness : Big
Codec ID : A_AC3
Duration : 1 h 51 min
Bit rate mode : Constant
Bit rate : 384 kb/s
Channel(s) : 6 channels
Channel positions : Front: L C R, Side: L R, LFE
Sampling rate : 48.0 kHz
Frame rate : 31.250 FPS (1536 spf)
Bit depth : 16 bits
Compression mode : Lossy
Stream size : 305 MiB (4%)
Language : Russian
Default : Yes
Forced : No
Audio #2
ID : 3
Format : DTS
Format/Info : Digital Theater Systems
Mode : 16
Format settings, Endianness : Big
Codec ID : A_DTS
Duration : 1 h 51 min
Bit rate mode : Constant
Bit rate : 1 509 kb/s
Channel(s) : 6 channels
Channel positions : Front: L C R, Side: L R, LFE
Sampling rate : 48.0 kHz
Frame rate : 93.750 FPS (512 spf)
Bit depth : 24 bits
Compression mode : Lossy
Stream size : 1.17 GiB (14%)
Language : English
Default : No
Forced : No
Menu
00:00:00.000 : en:00:00:00.000
00:05:00.550 : en:00:05:00.550
00:09:34.365 : en:00:09:34.365
00:12:33.711 : en:00:12:33.711
00:18:06.961 : en:00:18:06.961
00:21:08.642 : en:00:21:08.642
00:25:57.264 : en:00:25:57.264
00:30:19.818 : en:00:30:19.818
00:35:45.101 : en:00:35:45.101
00:42:06.482 : en:00:42:06.482
00:45:49.705 : en:00:45:49.705
00:49:13.284 : en:00:49:13.284
00:55:03.634 : en:00:55:03.634
00:57:58.892 : en:00:57:58.892
01:03:01.069 : en:01:03:01.069
01:08:44.871 : en:01:08:44.871
01:12:01.108 : en:01:12:01.108
01:19:14.625 : en:01:19:14.625
01:23:03.812 : en:01:23:03.812
01:26:36.358 : en:01:26:36.358
01:31:44.916 : en:01:31:44.916
01:35:31.684 : en:01:35:31.684
01:40:05.416 : en:01:40:05.416
01:45:13.807 : en:01:45:13.807 Скриншоты

Rutor

Last Downloads: publicagent isabella b gaso 0016 david archer author texas tornado lani lynn vale tvg 23 08 15 09 1721