Give the life to this torrent: Why.Him.2016.DVDRip.720p.x264-HEFF! After your Download, don't forget to Seed!

"Why.Him.2016.DVDRip.720p.x264-HEFF"

Hash: 4acf9ea9d15b5cf47943fbaf2816aa02652f6385

Size: 2.2 GB
Age: 12/03/2017
Files: 2
Seeds: 3083
Leeches: 1968
Verified: no
Downloads: 48

Hide your ip, before downloads! To anonymously download this torrent Why.Him.2016.DVDRip.720p.x264-HEFF, you need a SpyOFF VPN tool:

Get anonymous VPN
We searched for this here: Seedpeer, Yourbittorrent, Torrentbit, GlodlsTo, Limetorrents, Thepiratebay
Torrent description Torrent found on:
Donate Us: bitcoin:17HBPWiAcvh9GFcZPg1ebvBXbnJDE3oxut
General
Complete name : Why.Him.2016.DVDRip.720p.x264-HEFF.mp4
Format : MPEG-4
Format profile : Base Media
Codec ID : isom (isom/iso2/avc1/mp41)
File size : 2.20 GiB
Duration : 1 h 51 min
Overall bit rate : 2 829 kb/s
Video
ID : 1
Format : AVC
Format/Info : Advanced Video Codec
Format profile : Main@L4.1
Format settings, CABAC : Yes
Format settings, ReFrames : 4 frames
Codec ID : avc1
Codec ID/Info : Advanced Video Coding
Duration : 1 h 51 min
Bit rate : 2 700 kb/s
Width : 1 280 pixels
Height : 692 pixels
Display aspect ratio : 1.85:1
Frame rate mode : Constant
Frame rate : 23.976 (23976/1000) FPS
Chroma subsampling : 4:2:0
Bit depth : 8 bits
Scan type : Progressive
Bits/(Pixel*Frame) : 0.127
Stream size : 2.09 GiB (95%)
Writing library : x264 core 148
Audio
ID : 2
Format : AAC
Format/Info : Advanced Audio Codec
Format profile : LC
Codec ID : 40
Duration : 1 h 51 min
Duration_LastFrame : -11 ms
Bit rate mode : Constant
Bit rate : 129 kb/s
Channel(s) : 2 channels
Channel(s)_Original : 6 channels
Channel positions : Front: L C R, Side: L R, LFE
Sampling rate : 48.0 kHz
Frame rate : 46.875 FPS (1024 spf)
Compression mode : Lossy
Stream size : 102 MiB (5%)

Seedpeer

IMDb: http://www.imdb.com/title/tt4501244/
Donate Us: bitcoin:17HBPWiAcvh9GFcZPg1ebvBXbnJDE3oxut
File Info
General
Complete name : Why.Him.2016.DVDRip.720p.x264-HEFF.mp4
Format : MPEG-4
Format profile : Base Media
Codec ID : isom (isom/iso2/avc1/mp41)
File size : 2.20 GiB
Duration : 1 h 51 min
Overall bit rate : 2 829 kb/s
Video
ID : 1
Format : AVC
Format/Info : Advanced Video Codec
Format profile : /* */
Format settings, CABAC : Yes
Format settings, ReFrames : 4 frames
Codec ID : avc1
Codec ID/Info : Advanced Video Coding
Duration : 1 h 51 min
Bit rate : 2 700 kb/s
Width : 1 280 pixels
Height : 692 pixels
Display aspect ratio : 1.85:1
Frame rate mode : Constant
Frame rate : 23.976 (23976/1000) FPS
Chroma subsampling : 4:2:0
Bit depth : 8 bits
Scan type : Progressive
Bits/(Pixel*Frame) : 0.127
Stream size : 2.09 GiB (95%)
Writing library : x264 core 148
Audio
ID : 2
Format : AAC
Format/Info : Advanced Audio Codec
Format profile : LC
Codec ID : 40
Duration : 1 h 51 min
Duration_LastFrame : -11 ms
Bit rate mode : Constant
Bit rate : 129 kb/s
Channel(s) : 2 channels
Channel(s)_Original : 6 channels
Channel positions : Front: L C R, Side: L R, LFE
Sampling rate : 48.0 kHz
Frame rate : 46.875 FPS (1024 spf)
Compression mode : Lossy
Stream size : 102 MiB (5%)
Thumbnails

Yourbittorrent

IMDb: http://www.imdb.com/title/tt4501244/ Donate Us: bitcoin:17HBPWiAcvh9GFcZPg1ebvBXbnJDE3oxut File Info General Complete name : Why.Him.2016.DVDRip.720p.x264-HEFF.mp4 Format : MPEG-4 Format profile : Base Media Codec ID : isom (isom/iso2/avc1/mp41) File size : 2.20 GiB Duration : 1 h 51 min Overall bit rate : 2 829 kb/s Video ID : 1 Format : AVC Format/Info : Advanced Video Codec Format profile : /* */ Format settings, CABAC : Yes Format settings, ReFrames : 4 frames Codec ID : avc1 Codec ID/Info : Advanced Video Coding Duration : 1 h 51 min Bit rate : 2 700 kb/s Width : 1 280 pixels Height : 692 pixels Display aspect ratio : 1.85:1 Frame rate mode : Constant Frame rate : 23.976 (23976/1000) FPS Chroma subsampling : 4:2:0 Bit depth : 8 bits Scan type : Progressive Bits/(Pixel*Frame) : 0.127 Stream size : 2.09 GiB (95%) Writing library : x264 core 148 Audio ID : 2 Format : AAC Format/Info : Advanced Audio Codec Format profile : LC Codec ID : 40 Duration : 1 h 51 min Duration_LastFrame : -11 ms Bit rate mode : Constant Bit rate : 129 kb/s Channel(s) : 2 channels Channel(s)_Original : 6 channels Channel positions : Front: L C R, Side: L R, LFE Sampling rate : 48.0 kHz Frame rate : 46.875 FPS (1024 spf) Compression mode : Lossy Stream size : 102 MiB (5%) Thumbnails

Torrentbit

Your Internet Provider can track your torrent activity! Hide your IP address with a VPN. We recommend Trust.Zone VPNOrigin from extratorrent

GlodlsTo

Donate Us: bitcoin:17HBPWiAcvh9GFcZPg1ebvBXbnJDE3oxut
General
Complete name : Why.Him.2016.DVDRip.720p.x264-HEFF.mp4
Format : MPEG-4
Format profile : Base Media
Codec ID : isom (isom/iso2/avc1/mp41)
File size : 2.20 GiB
Duration : 1 h 51 min
Overall bit rate : 2 829 kb/s
Video
ID : 1
Format : AVC
Format/Info : Advanced Video Codec
Format profile : /* */
Format settings, CABAC : Yes
Format settings, ReFrames : 4 frames
Codec ID : avc1
Codec ID/Info : Advanced Video Coding
Duration : 1 h 51 min
Bit rate : 2 700 kb/s
Width : 1 280 pixels
Height : 692 pixels
Display aspect ratio : 1.85:1
Frame rate mode : Constant
Frame rate : 23.976 (23976/1000) FPS
Chroma subsampling : 4:2:0
Bit depth : 8 bits
Scan type : Progressive
Bits/(Pixel*Frame) : 0.127
Stream size : 2.09 GiB (95%)
Writing library : x264 core 148
Audio
ID : 2
Format : AAC
Format/Info : Advanced Audio Codec
Format profile : LC
Codec ID : 40
Duration : 1 h 51 min
Duration_LastFrame : -11 ms
Bit rate mode : Constant
Bit rate : 129 kb/s
Channel(s) : 2 channels
Channel(s)_Original : 6 channels
Channel positions : Front: L C R, Side: L R, LFE
Sampling rate : 48.0 kHz
Frame rate : 46.875 FPS (1024 spf)
Compression mode : Lossy
Stream size : 102 MiB (5%)

Thepiratebay

Last Downloads: jonathan saffraan foer reelsteady for after effects eplex 7 spherum fx black book french film complet en francais the love witch 2016 ita kamikaze love season 1